Windows 7 » Разное » Svs Learn Digital Painting 1 (2015)

Svs Learn Digital Painting 1 (2015)

Автор: Bo0mB0om » 10 мая 2016
Svs Learn Digital Painting 1 (2015)
SVS Learn - Digital Painting 1 (2015)
WEBRip | English | MP4 | 1126 x 720 | AVC ~288 kbps | 30 fps
AAC | 80 Kbps | 48.0 KHz | 2 channels | 03:48:44 | 694.3 MB
Genre: Video Tutorial / Painting, Adobe Photoshop



=
A Guided Tour Through The Creative Process Problem solving is a critical skill in art. The creative process is replete with unpredictable twists and turns, and it is often difficult to reverse engineer an artist's process when you only get to see the finished work. In this class, Marco takes you by the hand and guides you, from start to finish, through his process of painting an improvised, yet cohesive fantasy environment. Along the way he talks in depth about how the foundations of art serve as touchstones upon which to build, and how to tune your mindset to the task of discovering a new idea. Marco also takes an aside to demonstrate his Photoshop brushes as well as his methods of using them to mimic the look and feel of traditional media.
What you'll get out of the class:

Insight into the four fundamentals of painting: drawing, value, edges, and color
What to look for to create the biggest possible 'punch' with your images
How to make brushstrokes that add charisma to your paintings
Enable yourself to navigate the creative process and discover new concepts
Methods of telling a visual story within a picture
Develop a solid mindset that fosters confidence in your workflow
Learn a non-technical, artistic approach to using Adobe Photoshop

MediaInfo:
General
Complete name : 3 - All About Photoshop Brushes.mp4
Format : MPEG-4
Format profile : Base Media / Version 2
Codec ID : mp42 (mp42/mp41/isom/avc1)
File size : 65.5 MiB
Duration : 24mn 34s
Overall bit rate mode : Variable
Overall bit rate : 373 Kbps
Encoded date : UTC 2015-12-01 03:24:51
Tagged date : UTC 2015-12-01 03:24:51
Video
ID : 1
Format : AVC
Format/Info : Advanced Video Codec
Format profile :
Format settings, CABAC : Yes
Format settings, ReFrames : 5 frames
Codec ID : avc1
Codec ID/Info : Advanced Video Coding
Duration : 24mn 33s
Bit rate : 288 Kbps
Width : 1 126 pixels
Height : 720 pixels
Display aspect ratio : 16:10
Frame rate mode : Constant
Frame rate : 30.000 fps
Color space : YUV
Chroma subsampling : 4:2:0
Bit depth : 8 bits
Scan type : Progressive
Bits/(Pixel*Frame) : 0.012
Stream size : 50.6 MiB (77%)
Writing library : x264 core 148 r11 73ae2d1
Encoding settings : cabac=1 / ref=5 / deblock=1:0:0 / analyse=0x3:0x113 / me=umh / subme=8 / psy=1 / psy_rd=1.00:0.00 / mixed_ref=1 / me_range=16 / chroma_me=1 / trellis=1 / 8x8dct=1 / cqm=0 / deadzone=21,11 / fast_pskip=1 / chroma_qp_offset=-2 / threads=22 / lookahead_threads=3 / sliced_threads=0 / nr=0 / decimate=1 / interlaced=0 / bluray_compat=0 / stitchable=1 / constrained_intra=0 / bframes=3 / b_pyramid=2 / b_adapt=2 / b_bias=0 / direct=3 / weightb=1 / open_gop=0 / weightp=2 / keyint=infinite / keyint_min=30 / scenecut=40 / intra_refresh=0 / rc_lookahead=50 / rc=crf / mbtree=1 / crf=20.0 / qcomp=0.60 / qpmin=5 / qpmax=69 / qpstep=4 / vbv_maxrate=2750 / vbv_bufsize=7500 / crf_max=0.0 / nal_hrd=none / filler=0 / ip_ratio=1.40 / aq=1:1.00
Encoded date : UTC 2015-12-01 03:24:51
Tagged date : UTC 2015-12-01 03:24:51
Color range : Limited
Color primaries : BT.709
Transfer characteristics : BT.709
Matrix coefficients : BT.709
Audio
ID : 2
Format : AAC
Format/Info : Advanced Audio Codec
Format profile : LC
Codec ID : 40
Duration : 24mn 34s
Bit rate mode : Variable
Bit rate : 80.0 Kbps
Channel(s) : 2 channels
Channel(s)_Original : 1 channel
Channel positions : Front: C
Sampling rate : 48.0 KHz
Frame rate : 46.875 fps (1024 spf)
Compression mode : Lossy
Stream size : 14.1 MiB (21%)
Encoded date : UTC 2015-12-01 03:24:51
Tagged date : UTC 2015-12-01 03:24:51
DOWNLOAD
(Buy premium account for maximum speed and resumming ability)


http://nitroflare.com/view/35F78BD79901982/7yvhd.S.L.D.P.1.2015.part1.rar
http://nitroflare.com/view/BDCCAE967D5F050/7yvhd.S.L.D.P.1.2015.part2.rar
http://nitroflare.com/view/A68D6C8AD18CDA8/7yvhd.S.L.D.P.1.2015.part3.rar
http://nitroflare.com/view/3399991EE0B657C/7yvhd.S.L.D.P.1.2015.part4.rar
http://nitroflare.com/view/03EF28D0FACAF85/7yvhd.S.L.D.P.1.2015.part5.rar
http://nitroflare.com/view/48E87CFDEBB7A36/7yvhd.S.L.D.P.1.2015.part6.rar
http://nitroflare.com/view/55077186E7859C4/7yvhd.S.L.D.P.1.2015.part7.rar

http://rapidgator.net/file/d86583c20495a0ff390de22d3260d93c/7yvhd.S.L.D.P.1.2015.part1.rar
http://rapidgator.net/file/2d63654ccfed5f44d2c81832005701cd/7yvhd.S.L.D.P.1.2015.part2.rar
http://rapidgator.net/file/dbff1fd86df12b9707261ca66e5fd0d5/7yvhd.S.L.D.P.1.2015.part3.rar
http://rapidgator.net/file/ee2f829e6b47e33eedfbb4b46c5949af/7yvhd.S.L.D.P.1.2015.part4.rar
http://rapidgator.net/file/c1fc8ca24728f0d1b905e9648f10e231/7yvhd.S.L.D.P.1.2015.part5.rar
http://rapidgator.net/file/4d4bc1ef9fff7f050b391666b9e80553/7yvhd.S.L.D.P.1.2015.part6.rar
http://rapidgator.net/file/2ee33888d5a16b1e0f16ca6f76eeebcb/7yvhd.S.L.D.P.1.2015.part7.rar

http://uploaded.net/file/rzhozjg8/7yvhd.S.L.D.P.1.2015.part1.rar
http://uploaded.net/file/uinqky2a/7yvhd.S.L.D.P.1.2015.part2.rar
http://uploaded.net/file/ujqo9rmy/7yvhd.S.L.D.P.1.2015.part3.rar
http://uploaded.net/file/u8d4fuls/7yvhd.S.L.D.P.1.2015.part4.rar
http://uploaded.net/file/7y6gcl9r/7yvhd.S.L.D.P.1.2015.part5.rar
http://uploaded.net/file/zaywpngi/7yvhd.S.L.D.P.1.2015.part6.rar
http://uploaded.net/file/ucbao2mo/7yvhd.S.L.D.P.1.2015.part7.rar

http://www.datafile.com/d/TVRjNE1qZ3hOakUF9/7yvhd.S.L.D.P.1.2015.part1.rar
http://www.datafile.com/d/TVRjNE1qZ3hOVGcF9/7yvhd.S.L.D.P.1.2015.part2.rar
http://www.datafile.com/d/TVRjNE1qZ3hOVGsF9/7yvhd.S.L.D.P.1.2015.part3.rar
http://www.datafile.com/d/TVRjNE1qZ3hOalUF9/7yvhd.S.L.D.P.1.2015.part4.rar
http://www.datafile.com/d/TVRjNE1qZ3hOamMF9/7yvhd.S.L.D.P.1.2015.part5.rar
http://www.datafile.com/d/TVRjNE1qZ3hOekkF9/7yvhd.S.L.D.P.1.2015.part6.rar
http://www.datafile.com/d/TVRjNE1qYzRNVGMF9/7yvhd.S.L.D.P.1.2015.part7.rar




Перед тем как скачать Svs Learn Digital Painting 1 (2015) бесплатно, без смс, регистрации, на халяву, через торрент, рекомендуем прочитать отзывыо Svs Learn Digital Painting 1 (2015).

Другие новости по теме: