Windows 7 » Разное » Coursera - Mathematical Methods for Quantitative Finance by Dr. Kjell Konis (2016)

Coursera - Mathematical Methods for Quantitative Finance by Dr. Kjell Konis (2016)

Автор: Bo0mB0om » 2 июля 2016
Coursera - Mathematical Methods for Quantitative Finance by Dr. Kjell Konis (2016)
Coursera - Mathematical Methods for Quantitative Finance
WEBRip | English | MP4 | 960 x 540 | AVC ~63.8 kbps | 25 fps
AAC | 128 Kbps | 48.0 KHz | 2 channels | ~8 hours | 5.98 GB
Genre: eLearning Video / Maths, Economics & Finance


Mathematical Methods for Quantitative Finance covers topics from calculus and linear algebra that are fundamental for the study of mathematical finance. Students successfully completing this course will be mathematically well prepared to study quantitative finance at the graduate level.

The Mathematical Methods for Quantitative Finance course reviews the mathematical methods fundamental for the study of quantitative and computational finance. The areas of focus include calculus and multivariable calculus, constrained and unconstrained optimization, and linear algebra.
Topics covered include the following:
Functions and inverse functions
Limits, derivatives, partial derivatives, and chain rule
Integrals and multiple integrals, changing the order of differentiation and integration
Taylor series approximations
Newton's method
Lagrange multiplier method
Vector and matrix arithmetic, determinants, eigenvalue-eigenvector decomposition, singular value decomposition
Numerical methods for optimization
Course goal:
Upon completion of the course students will know the fundamental mathematical concepts needed to effectively study quantitative finance areas such as fixed income, options and derivatives, portfolio optimization, and quantitative risk management.
Course Objectives:
Upon completion of the course students will:
Understand the concept of a limit, differentiation, and integration;
Be able to compute partial derivatives and multiple integrals;
Understand the utility of matrix decompositions;
Be able to use Lagrange multipliers to solve constrained optimization problems; and
Apply the above methods to problems arising in finance.
   MediaInfo:            GeneralComplete name                            : Mathematical Methods for Quantitative Finance 8.1 W7.1.1 - Optimal Investment Portfolios (1732).mp4Format                                   : MPEG-4Format profile                           : Base MediaCodec ID                                 : isomFile size                                : 24.8 MiBDuration                                 : 17mn 32sOverall bit rate mode                    : VariableOverall bit rate                         : 198 KbpsMovie name                               : MMfQF_W7_P1_Kjell_OptimalInvestmentPortfolios_FINALComposer                                 : Jon KeibWriting application                      : Lavf52.99.1desc                                     : This video is about MMfQF_W7_P1_Kjell_OptimalInvestmentPortfoliosVideoID                                       : 1Format                                   : AVCFormat/Info                              : Advanced Video CodecFormat profile                           : High@L3.0Format settings, CABAC                   : YesFormat settings, ReFrames                : 4 framesCodec ID                                 : avc1Codec ID/Info                            : Advanced Video CodingDuration                                 : 17mn 32sBit rate                                 : 63.8 KbpsWidth                                    : 960 pixelsHeight                                   : 540 pixelsDisplay aspect ratio                     : 16:9Frame rate mode                          : ConstantFrame rate                               : 25.000 fpsColor space                              : YUVChroma subsampling                       : 4:2:0Bit depth                                : 8 bitsScan type                                : ProgressiveBits/(Pixel*Frame)                       : 0.005Stream size                              : 8.00 MiB (32%)Writing library                          : x264 core 114 r1913 5fd3dceEncoding settings                        : cabac=1 / ref=1 / deblock=1:0:0 / analyse=0x3:0x113 / me=hex / subme=2 / psy=1 / psy_rd=0.00:0.00 / mixed_ref=0 / me_range=16 / chroma_me=1 / trellis=0 / 8x8dct=1 / cqm=0 / deadzone=21,11 / fast_pskip=1 / chroma_qp_offset=0 / threads=3 / sliced_threads=0 / nr=0 / decimate=1 / interlaced=0 / constrained_intra=0 / bframes=3 / b_pyramid=2 / b_adapt=1 / b_bias=0 / direct=1 / weightb=1 / open_gop=0 / weightp=0 / keyint=250 / keyint_min=25 / scenecut=40 / intra_refresh=0 / rc_lookahead=10 / rc=crf / mbtree=1 / crf=28.0 / qcomp=0.60 / qpmin=0 / qpmax=69 / qpstep=4 / ip_ratio=1.41 / aq=1:1.00Language                                 : EnglishAudioID                                       : 2Format                                   : AACFormat/Info                              : Advanced Audio CodecFormat profile                           : LCCodec ID                                 : 40Duration                                 : 17mn 32sBit rate mode                            : VariableBit rate                                 : 128 KbpsChannel(s)                               : 2 channelsChannel positions                        : Front: L RSampling rate                            : 48.0 KHzCompression mode                         : LossyDelay relative to video                  : -2msStream size                              : 16.0 MiB (65%)Language                                 : English    


Coursera - Mathematical Methods for Quantitative Finance by Dr. Kjell Konis (2016)

Coursera - Mathematical Methods for Quantitative Finance by Dr. Kjell Konis (2016)

Coursera - Mathematical Methods for Quantitative Finance by Dr. Kjell Konis (2016)

Coursera - Mathematical Methods for Quantitative Finance by Dr. Kjell Konis (2016)

Coursera - Mathematical Methods for Quantitative Finance by Dr. Kjell Konis (2016)

[/center]

DOWNLOAD
(Buy premium account for maximum speed and resumming ability)


http://nitroflare.com/view/CE91C8557A6ECD0/3sbyw.C.M.M.f.Q.F.b.D.K.K.2016.part1.rar
http://nitroflare.com/view/54528AAEBB2C01C/3sbyw.C.M.M.f.Q.F.b.D.K.K.2016.part2.rar
http://nitroflare.com/view/B7C10D8B9AAE072/3sbyw.C.M.M.f.Q.F.b.D.K.K.2016.part3.rar
http://nitroflare.com/view/E0090D404E64C0B/3sbyw.C.M.M.f.Q.F.b.D.K.K.2016.part4.rar
http://nitroflare.com/view/01BEB0E46561D8B/3sbyw.C.M.M.f.Q.F.b.D.K.K.2016.part5.rar
http://nitroflare.com/view/455643C79E596B3/3sbyw.C.M.M.f.Q.F.b.D.K.K.2016.part6.rar
http://nitroflare.com/view/02E7A03385DA502/3sbyw.C.M.M.f.Q.F.b.D.K.K.2016.part7.rar

http://rapidgator.net/file/58c8a19aa2b1b6e9ef1c69fe1cf50297/3sbyw.C.M.M.f.Q.F.b.D.K.K.2016.part1.rar
http://rapidgator.net/file/2fea7821f52c100cedfd61eec2433d66/3sbyw.C.M.M.f.Q.F.b.D.K.K.2016.part2.rar
http://rapidgator.net/file/55f539f1522871d653f9ee58bfb36bf5/3sbyw.C.M.M.f.Q.F.b.D.K.K.2016.part3.rar
http://rapidgator.net/file/f19aef796715ce24277b07d9de595230/3sbyw.C.M.M.f.Q.F.b.D.K.K.2016.part4.rar
http://rapidgator.net/file/a8e0f0dd6b3f4e52cc3e0329acbf51b6/3sbyw.C.M.M.f.Q.F.b.D.K.K.2016.part5.rar
http://rapidgator.net/file/4253216fe80de2d21a89707b60b4aa94/3sbyw.C.M.M.f.Q.F.b.D.K.K.2016.part6.rar
http://rapidgator.net/file/220d965e9df5cc7d4c03030b5848cfbb/3sbyw.C.M.M.f.Q.F.b.D.K.K.2016.part7.rar

http://uploaded.net/file/pv05mtvw/3sbyw.C.M.M.f.Q.F.b.D.K.K.2016.part1.rar
http://uploaded.net/file/pl3xuj7g/3sbyw.C.M.M.f.Q.F.b.D.K.K.2016.part2.rar
http://uploaded.net/file/aneoeipv/3sbyw.C.M.M.f.Q.F.b.D.K.K.2016.part3.rar
http://uploaded.net/file/d36ca8xc/3sbyw.C.M.M.f.Q.F.b.D.K.K.2016.part4.rar
http://uploaded.net/file/1kxci0de/3sbyw.C.M.M.f.Q.F.b.D.K.K.2016.part5.rar
http://uploaded.net/file/j670krdy/3sbyw.C.M.M.f.Q.F.b.D.K.K.2016.part6.rar
http://uploaded.net/file/n44kd3cd/3sbyw.C.M.M.f.Q.F.b.D.K.K.2016.part7.rar




Перед тем как скачать Coursera - Mathematical Methods for Quantitative Finance by Dr. Kjell Konis (2016) бесплатно, без смс, регистрации, на халяву, через торрент, рекомендуем прочитать отзывыо Coursera - Mathematical Methods for Quantitative Finance by Dr. Kjell Konis (2016).

Другие новости по теме: