Windows 7 » Разное » Pro Studio Live - Brian Scheuble Pop Mixing Session (2016)

Pro Studio Live - Brian Scheuble Pop Mixing Session (2016)

Автор: oaxino » 5 сентября 2016
Pro Studio Live - Brian Scheuble Pop Mixing Session (2016)

Pro Studio Live - Brian Scheuble Pop Mixing Session (2016)
WEBRip | English | MP4 | 1280 x 720 | AVC ~569 kbps | 23.976 fps
AAC | 256 Kbps | 44.1 KHz | 2 channels | 03:31:35 | 1.27 GB
Genre: Video Tutorial / Sound Processing

Learn to mix pop with Brian Schueble! Brian is an audio engineer who has been working with artists such as Dave Matthews, Jason Mraz, Sons of Anarchy TV show, Papa Roach, Backstreet Boys, Barbara Streisand, and many others. In this session, Brian shows us how to perform mixing magic! He mixes in a completely digital environment, so many of you will be able to apply his techniques.

   MediaInfo:            GeneralComplete name                            : POP MIXING SESSION part 1-2.mp4Format                                   : MPEG-4Format profile                           : Base MediaCodec ID                                 : isomFile size                                : 327 MiBDuration                                 : 54mn 56sOverall bit rate mode                    : VariableOverall bit rate                         : 831 KbpsWriting application                      : Lavf56.40.101rati                                     : (Binary)VideoID                                       : 1Format                                   : AVCFormat/Info                              : Advanced Video CodecFormat profile                           : Main@L4.1Format settings, CABAC                   : YesFormat settings, ReFrames                : 3 framesCodec ID                                 : avc1Codec ID/Info                            : Advanced Video CodingDuration                                 : 54mn 56sBit rate                                 : 569 KbpsWidth                                    : 1 280 pixelsHeight                                   : 720 pixelsDisplay aspect ratio                     : 16:9Frame rate mode                          : ConstantFrame rate                               : 23.976 fpsColor space                              : YUVChroma subsampling                       : 4:2:0Bit depth                                : 8 bitsScan type                                : ProgressiveBits/(Pixel*Frame)                       : 0.026Stream size                              : 224 MiB (68%)AudioID                                       : 2Format                                   : AACFormat/Info                              : Advanced Audio CodecFormat profile                           : LCCodec ID                                 : 40Duration                                 : 54mn 56sDuration_LastFrame                       : -4msBit rate mode                            : VariableBit rate                                 : 256 KbpsMaximum bit rate                         : 8 000 KbpsChannel(s)                               : 2 channelsChannel positions                        : Front: L RSampling rate                            : 44.1 KHzCompression mode                         : LossyDelay relative to video                  : 83msStream size                              : 101 MiB (31%)


Screenshots

Pro Studio Live - Brian Scheuble Pop Mixing Session (2016)



Pro Studio Live - Brian Scheuble Pop Mixing Session (2016)



Pro Studio Live - Brian Scheuble Pop Mixing Session (2016)



Pro Studio Live - Brian Scheuble Pop Mixing Session (2016)




Download link:



Links are Interchangeable - No Password - Single Extraction




Перед тем как скачать Pro Studio Live - Brian Scheuble Pop Mixing Session (2016) бесплатно, без смс, регистрации, на халяву, через торрент, рекомендуем прочитать отзывыо Pro Studio Live - Brian Scheuble Pop Mixing Session (2016).

Другие новости по теме:
  • Тихомиров Л.А - Апология Веры и Монархии
    В книге представлена интересная положительная программа реформ России, которую Л.А. Тихомиров разрабатывал, будучи советником П.А. Столыпина и редактором старейшей монархической газеты "Московские
  • Java Build Automation with Maven
    Lynda - Java Build Automation with Maven Duration: 1h 24m | Video: AVC (.mp4) 1280x720 15&30fps | Audio: AAC 48KHz 2ch | 215 MBGenre: eLearning | Level: Intermediate | Language: English
  • Making Of по созданию персонажа Мохнатый хулиган (2016)
    Making Of по созданию персонажа Мохнатый хулиган - Рассмотрен поверхностно процесс создания болванки из Z сфер. Показан процесс текстурирования в программе 3D Coat. Настройка Hair Fur, постановка
  • ITU Learning - Cisco 300-115: CCNP Routing and Switching SWITCH
    ITU Learning - Cisco 300-115: CCNP Routing and Switching SWITCHHDRips | MP4/AVC, ~3366 kb/s | 1280x720 | Duration: 19 hours | English: AAC, 317 kb/s (2 ch) | 29,5 GBGenre: Development / Programming /
  • Get Microsoft Access 2013 Certified (MOS) Exam 77-424 (2016)
    Get Microsoft Access 2013 Certified (MOS) Exam 77-424MP4 | Video: AVC 1280x720 | Audio: AAC 44KHz 2ch | Duration: 3 Hours | Lec: 28 | 714 MBGenre: eLearning | Language: English Learn how to pass the