Windows 7 » Разное » CreativeLive - Ryan Holiday Smart PR for Artists & Entrepreneurs (2016)

CreativeLive - Ryan Holiday Smart PR for Artists & Entrepreneurs (2016)

Автор: Bo0mB0om » 16 сентября 2016
CreativeLive - Ryan Holiday Smart PR for Artists & Entrepreneurs (2016)

CreativeLive - Ryan Holiday: Smart PR for Artists & Entrepreneurs (2016)
WEBRip | English | WMV | 944 x 528 | WMV3 ~700 kbps | 25 fps
WMA | 96 Kbps | 44.1 KHz | 2 channels | 11:01:15 | 3.68 GB
Genre: Video Tutorial / Business, Sales, Marketing


Getting free media attention is a powerful and often misunderstood communication tool. Join media strategist and best selling author Ryan Holiday for his course on how to create smart, savvy and provocative PR campaigns.
Whether you are a business owner, freelance artist or a creative entrepreneur, Ryan's course will teach you how to get the right kind of attention, without paying for it.

Take your business to the next level with proven strategies and techniques from Ryan Holiday, who at the age of 23yrs, landed one of the most high profile marketing jobs as Marketing Director of American Apparel.

Content:

1. Day 1 Pre-Show 10:31
2. Introduction to PR 18:03
3. Case Study: 5 American Apparel Campaigns 32:08
4. Interview with Joey Roth 29:02
5. A New Definition of Marketing (with Brendan Gahan) 1:14:23
6. Your Thing Isn't Ready to be Marketed 36:04
7. Creating Compelling Narratives 32:34
8. How to Make Things Viral (with guest Ian Spector) 22:25
9. The Importance of Video 25:41
10. Hot Seat (with guest David Thier) 34:38
11. Day 1 Wrap-Up 05:44

12. Day 2 Pre-Show 08:31
13. Introduction 11:59
14. Introduction to HARO 31:19
15. How to Pitch to Bloggers & Launch Products Part 1 38:11
16. How to Pitch to Bloggers & Launch Products Part 2 1:06:32
17. Blow Your Message Up 40:42
18. Making Interesting Ads 19:14
19. Risk 16:12
20. Hot Seat With David Thier 43:49
21. Day 2 Wrap-Up 06:15
MediaInfo:            GeneralComplete name    : CreativeLive - Ryan Holiday. Smart PR for Artists & Entrepreneurs - Day 2.wmvFormat     : Windows MediaFile size  : 1.74 GiBDuration   : 5h 12mnOverall bit rate mode                    : ConstantOverall bit rate : 798 KbpsMaximum Overall bit rate                 : 806 KbpsEncoded date     : UTC 2013-02-23 22:04:01.646VideoID : 2Format     : VC-1Format profile   : MainCodec ID   : WMV3Codec ID/Info    : Windows Media Video 9Codec ID/Hint    : WMV3Description of the codec                 : Windows Media Video 9Duration   : 5h 12mnBit rate   : 700 KbpsWidth      : 944 pixelsHeight     : 528 pixelsDisplay aspect ratio                     : 16:9Frame rate : 25.000 fpsBit depth  : 8 bitsScan type  : ProgressiveCompression mode : LossyBits/(Pixel*Frame) : 0.056Stream size: 1.53 GiB (88%)Language   : English (US)AudioID : 1Format     : WMAFormat version   : Version 2Codec ID   : 161Codec ID/Info    : Windows Media AudioDescription of the codec                 : Windows Media Audio 9.2 -  96 kbps, 44 kHz, stereo 1-pass CBRDuration   : 5h 12mnBit rate mode    : ConstantBit rate   : 96.0 KbpsChannel(s) : 2 channelsSampling rate    : 44.1 KHzBit depth  : 16 bitsStream size: 215 MiB (12%)Language   : English (US)

CreativeLive - Ryan Holiday Smart PR for Artists & Entrepreneurs (2016)

CreativeLive - Ryan Holiday Smart PR for Artists & Entrepreneurs (2016)

CreativeLive - Ryan Holiday Smart PR for Artists & Entrepreneurs (2016)

DOWNLOAD
(Buy premium account for maximum speed and resuming ability)





Перед тем как скачать CreativeLive - Ryan Holiday Smart PR for Artists & Entrepreneurs (2016) бесплатно, без смс, регистрации, на халяву, через торрент, рекомендуем прочитать отзывыо CreativeLive - Ryan Holiday Smart PR for Artists & Entrepreneurs (2016).

Другие новости по теме: